Friday, 4 March 2011

Salt_2010(HINDI)_BRRip_720p_INDIAN SNIPERS RELEASES

Salt_2010(HINDI)_BRRip_720p_INDIAN SNIPERS RELEASES






This image has been resized. Click this bar to view the full image. The original image is sized 1280x520.

This image has been resized. Click this bar to view the full image. The original image is sized 1280x520.






This image has been resized. Click this bar to view the full image. The original image is sized 1280x520.


This image has been resized. Click this bar to view the full image. The original image is sized 1280x520.




General
Complete name : E:\Salt_2010(HINDI)_BRRip_720p_INDIAN SNIPERS RELEASES\Salt_2010(HINDI)_BRRip_720p_INDIAN SNIPERS RELEASES.mkv
Format : Matroska
File size : 710 MiB
Duration : 1h 39mn
Overall bit rate : 996 Kbps
Movie name : Salt 2010 BRRip 720p INDIAN SNIPERS RELEASES
Encoded date : UTC 2011-02-17 11:22:31
Writing application : mkvmerge v2.2.0 ('Turn It On Again') built on Mar 4 2008 13:20:25
Writing library : libebml v0.7.7 + libmatroska v0.8.1

Video
ID : 1
Format : AVC
Format/Info : Advanced Video Codec
Format profile : High@L4.0
Format settings, CABAC : Yes
Format settings, ReFrames : 3 frames
Muxing mode : Container profile=Unknown@4.0
Codec ID : V_MPEG4/ISO/AVC
Duration : 1h 39mn
Bit rate : 848 Kbps
Width : 1 280 pixels
Height : 520 pixels
Display aspect ratio : 2.462
Frame rate : 25.000 fps
Color space : YUV
Chroma subsampling : 4:2:0
Bit depth : 8 bits
Scan type : Progressive
Bits/(Pixel*Frame) : 0.051
Stream size : 605 MiB (85%)
Title : INDIAN SNIPERS RELEASES
Writing library : x264 core 104 r1683 62997d6

Audio
ID : 2
Format : MPEG Audio
Format version : Version 1
Format profile : Layer 3
Mode : Joint stereo
Mode extension : MS Stereo
Codec ID : A_MPEG/L3
Codec ID/Hint : MP3
Duration : 1h 39mn
Bit rate mode : Constant
Bit rate : 128 Kbps
Channel(s) : 2 channels
Sampling rate : 44.1 KHz
Stream size : 91.3 MiB (13%)
Title : INDIAN SNIPERS RELEASES
Writing library : LAME3.98.2
Language : Hindi


Code:
http://www.mediafire.com/?5kud6q7dg0l2s

Password:  sawantsharma

No comments:

Post a Comment